KARD – Ring The Alarm [Bugs]

You must be logged in to view this content.
Mediainfo

General

Complete name : KARD Ring The Alarm_카드_1080p.mp4
Format : MPEG-4
Format profile : Base Media / Version 2
Codec ID : mp42 (mp42/mp41)
File size : 2.05 GiB
Duration : 3 min 44 s
Overall bit rate mode : Variable
Overall bit rate : 78.5 Mb/s
Encoded date : UTC 2022-06-21 06:57:04
Tagged date : UTC 2022-06-21 07:01:12
©TIM : 00:00:00:00
©TSC : 24000
©TSZ : 1001

Video

ID : 1
Format : AVC
Format/Info : Advanced Video Codec
Format profile : High@L5.2
Format settings, CABAC : Yes
Format settings, ReFrames : 4 frames
Codec ID : avc1
Codec ID/Info : Advanced Video Coding
Duration : 3 min 44 s
Bit rate : 78.1 Mb/s
Width : 3 840 pixels
Height : 2 160 pixels
Display aspect ratio : 16:9
Frame rate mode : Constant
Frame rate : 23.976 (24000/1001) FPS
Color space : YUV
Chroma subsampling : 4:2:0
Bit depth : 8 bits
Scan type : Progressive
Bits/(Pixel*Frame) : 0.393
Stream size : 2.04 GiB (100%)
Language : English
Encoded date : UTC 2022-06-21 06:57:05
Tagged date : UTC 2022-06-21 06:57:05
Color range : Limited
Color primaries : BT.709
Transfer characteristics : BT.709
Matrix coefficients : BT.709

Audio

ID : 2
Format : AAC
Format/Info : Advanced Audio Codec
Format profile : LC
Codec ID : 40
Duration : 3 min 44 s
Source duration : 3 min 44 s
Bit rate mode : Variable
Bit rate : 317 kb/s
Maximum bit rate : 461 kb/s
Channel(s) : 2 channels
Channel positions : Front: L R
Sampling rate : 48.0 kHz
Frame rate : 46.875 FPS (1024 spf)
Compression mode : Lossy
Stream size : 8.50 MiB (0%)
Source stream size : 8.50 MiB (0%)
Language : English
Encoded date : UTC 2022-06-21 06:57:05
Tagged date : UTC 2022-06-21 06:57:05

Leave a Comment